Cowboys And Aliens 2011 TS XViD – IMAGiNE

 
 


Cowboys And Aliens 2011 TS XViD – IMAGiNE
Uploaded In :Rapidshare,FileSonic,Uploaded,fileserve

A spaceship arrives in Arizona, 1873, to take over the Earth, starting with the Wild West region. A posse of cowboys are all that stand in their way.

DETAILS:

Video
ID : 0
Format : MPEG-4 Visual
Format profile : Advanced Simple@L5
Format settings, BVOP : 2
Format settings, QPel : No
Format settings, GMC : No warppoints
Format settings, Matrix : Default (MPEG)
Muxing mode : Packed bitstream
Codec ID : XVID
Codec ID/Hint : XviD
Duration : 1h 53mn
Bit rate : 2 435 Kbps
Width : 720 pixels
Height : 304 pixels
Display aspect ratio : 2.35:1
Frame rate : 29.970 fps
Color space : YUV
Chroma subsampling : 4:2:0
Bit depth : 8 bits
Scan type : Progressive
Compression mode : Lossy
Bits/(Pixel*Frame) : 0.371
Stream size : 1.94 GiB (94%)
Writing library : XviD 64

Audio
ID : 1
Format : MPEG Audio
Format version : Version 1
Format profile : Layer 3
Codec ID : 55
Codec ID/Hint : MP3
Duration : 1h 53mn
Bit rate mode : Constant
Bit rate : 128 Kbps
Channel(s) : 2 channels
Sampling rate : 44.1 KHz
Compression mode : Lossy
Stream size : 104 MiB (5%)
Alignment : Split accross interleaves
Interleave, duration : 33 ms (1.00 video frame)
Interleave, preload duration : 500 ms

screen



DOWNLOAD:

Code:
http://www.filesonic.com/file/1563684261/Cowboys_And_Aliens_2011_TS_XViD_-_IMAGiNE.rar

Code:
http://www.filesonic.com/file/1563652451/CwbondAliNE.part1.rar
http://www.filesonic.com/file/1563652441/CwbondAliNE.part2.rar
http://www.filesonic.com/file/1563658971/CwbondAliNE.part3.rar

Via (only registered users can se the link, login or register)

  • Cowboys And Aliens 2011 TS RUS
  • Cowboys And Aliens 2011 TS XViD – IMAGiNE
  • cowboys and aliens scan
  • CwbondAliNE part1 password
  • CwbondAliNE part1 rar
  • CwbondAliNE part3 rar
  • marixouana skan
  • инопланетяне 2011

  • ковбой и инопланетяне
  • инопланетяне 2011
  • marixouana skan
  • cowboys and aliens scan

 
 

More from our blog

See all posts
 
No Comments